Фильм викинги с данилой козловским торрент

19.08.2018
0
100


Викинг (2016) BDRip-AVC от New-Team | Расширенная версия | Лицензия скачать торрент

Группа New-Team ВКонтакте
Подписывайтесь так же на мою группу ВКонтакте stalkerok | AVC рипы
Ссылка в группе New-Team
Присоединяйтесь!

Викинг

«Тебе нужно увидеть, чтобы поверить»


Страна: Россия
Жанр: история, драма

Год выпуска: 2016


Продолжительность: 02:22:07

Перевод: Не требуется


Cубтитры: русские (форсированные, вшитые)
Оригинальная аудиодорожка: русский

Режиссер: Андрей Кравчук

В ролях: Данила Козловский, Светлана Ходченкова, Максим Суханов, Игорь Петренко, Андрей Смоляков, Владимир Епифанцев, Александра Бортич, Кирилл Плетнёв, Александр Устюгов, Ростислав Бершауэр, Павел Делонг, Алексей Демидов

Описание:

Раннее Средневековье. Время тяжелых мечей и темных законов крови. Правящий род в раздоре. Вина за случайную смерть брата легла на Великого Князя. По закону мстить ему должен младший брат — бастард. За отказ убивать он заплатит всем, что у него было, потому что «для мира нужно больше мечей, чем для войны».

Релиз:

Автор рипа: stalkerok

Сэмпл

Качество видео: BDRip-AVC [Викинг (2016) Blu-ray disc 1080p [RUS] [UNRATED]]


Формат видео: MKV
Видео кодек: AVC
Аудио кодек: AC3
Видео: 2579 Кбит/сек, 1010x424 (2,40:1), в 24,000 кадра/сек, AVC
Аудио: русский, 448 Кбит/сек, 48,0 КГц, 6 каналов, AC3 Blu-ray RUS
Навигация по главам: есть

x264/MediaInfo

---[Information] [05.02.2018 16:35:37] x264 [info]: frame I:1494 Avg QP:19.02 size: 57399 ---[Information] [05.02.2018 16:35:37] x264 [info]: frame P:51007 Avg QP:20.71 size: 24461 ---[Information] [05.02.2018 16:35:37] x264 [info]: frame B:152150 Avg QP:22.83 size: 9306 Общее Уникальный идентификатор : 246725257202812478629451624994726222712 (0xB99D8E5BCE6DBAC19E13941029CC1B78) Полное имя : M:!!!!!!Rips2Viking.2016Viking.2016.BDRip-AVC.RUS..stalkerok.new-team.mkv Формат : Matroska Версия формата : Version 4 / Version 2 Размер файла : 3,01 Гбайт Продолжительность : 2 ч. 22 м. Общий поток : 3029 Кбит/сек Название фильма : Викинг (2016) (Rip by stalkerok) Дата кодирования : UTC 2018-02-09 12:23:32 Программа кодирования : mkvmerge v8.6.1 ('Flying') 64bit Библиотека кодирования : libebml v1.3.3 + libmatroska v1.4.4 Видео Идентификатор : 1 Формат : AVC Формат/Информация : Advanced Video Codec Профиль формата : High@L4.1 Параметр CABAC формата : Да Параметр ReFrames формата : 12 кадров Идентификатор кодека : V_MPEG4/ISO/AVC Продолжительность : 2 ч. 22 м. Битрейт : 2579 Кбит/сек Ширина : 1010 пикселей Высота : 424 пикселя Соотношение сторон : 2,40:1 Режим частоты кадров : Постоянный Частота кадров : 24,000 кадра/сек Цветовое пространство : YUV Субдискретизация насыщенности : 4:2:0 Битовая глубина : 8 бит Тип развёртки : Прогрессивная Бит/(Пиксели*Кадры) : 0.251 Размер потока : 2,56 Гбайт (85%) Заголовок : Викинг (2016) (Rip by stalkerok) Библиотека кодирования : x264 core 152 r2851kMod ba24899 Настройки программы : cabac=1 / ref=12 / deblock=1:-3:-2 / analyse=0x3:0x133 / me=umh / subme=11 / psy=1 / fade_compensate=0.00 / psy_rd=1.00:0.00 / mixed_ref=1 / me_range=32 / chroma_me=1 / trellis=2 / 8x8dct=1 / cqm=0 / deadzone=21,11 / fast_pskip=0 / chroma_qp_offset=-2 / threads=12 / lookahead_threads=3 / sliced_threads=0 / nr=0 / decimate=1 / interlaced=0 / bluray_compat=0 / constrained_intra=0 / bframes=14 / b_pyramid=2 / b_adapt=2 / b_bias=0 / direct=3 / weightb=1 / open_gop=0 / weightp=2 / keyint=240 / keyint_min=23 / scenecut=40 / intra_refresh=0 / rc_lookahead=60 / rc=crf / mbtree=0 / crf=19.4000 / qcomp=0.65 / qpmin=0 / qpmax=69 / qpstep=4 / vbv_maxrate=50000 / vbv_bufsize=62500 / crf_max=0.0 / nal_hrd=none / filler=0 / ip_ratio=1.40 / pb_ratio=1.30 / aq=3:0.92 / zones=193374,204650,q=34 Default : Да Forced : Нет Аудио Идентификатор : 2 Формат : AC-3 Формат/Информация : Audio Coding 3 Расширение режима : CM (complete main) Параметр Endianness формата : Big Идентификатор кодека : A_AC3 Продолжительность : 2 ч. 22 м. Вид битрейта : Постоянный Битрейт : 448 Кбит/сек Каналы : 6 каналов Расположение каналов : Front: L C R, Side: L R, LFE Частота : 48,0 КГц Частота кадров : 31,250 кадров/сек (1536 spf) Метод сжатия : С потерями Размер потока : 455 Мбайт (15%) Язык : Russian Default : Да Forced : Нет Меню 00:00:00.000 : en:Chapter 1 00:01:24.791 : en:Chapter 2 00:12:35.458 : en:Chapter 3 00:27:32.375 : en:Chapter 4 00:43:47.000 : en:Chapter 5 01:01:19.000 : en:Chapter 6 01:21:34.125 : en:Chapter 7 01:41:53.416 : en:Chapter 8 01:57:32.750 : en:Chapter 9
фильм викинги с данилой козловским торрент
Викинг (2016) MP4 HD

Просмотров: 667
Просмотров: 1 782
Просмотров: 1 835
Просмотров: 405
Просмотров: 414
Просмотров: 675
Просмотров: 1 081
Просмотров: 647
Просмотров: 1 699
Просмотров: 426 ?????? (2016)

?????? ?????????????. ????? ??????? ????? ? ?????? ??????? ?????. ???????? ??? ? ???????. ???? ?? ????????? ?????? ????? ????? ?? ???????? ?????. ?? ?????? ?????? ??? ?????? ??????? ???? - ???????. ?? ????? ??????? ?? ???????? ????, ??? ? ???? ????, ?????? ??? ???? ???? ????? ?????? ?????, ??? ??? ??????.

Понравиласть статья? Жми лайк или расскажи своим друзьям!
Теги к новости:
Комментарии
Добавить комментарий
Похожие новости:
19.08.2018
kinopoisk|102308||name|Дублер||name_foreign|La doublure||year|2006||genre|драма, комедия||director|Франсис Вебер||actors|Гад Эльмалех, Элис Тальони
19.08.2018
скачать фильм Измена 2012 торрентИнформация о фильмеНазвание: фильм Дублёр 2013 скачать торрентОригинальное название: ДублёрГод выхода: 2013Жанр: комедияРежиссер: Евгений АбызовВ ролях
19.08.2018
Official catalog of the quality sport goods for children and adults. The Hello Wood produces kick, dirt, freestyle scooters, longboards
19.08.2018
Всего найдено фотогалерей: 230 Адам Ламберт Adam Lambert Главная > Знаменитости > Русские селебрити > Российское кино — фамилии и фото актёров мужчин Современное
19.08.2018
Дата выхода в России (или в Мире): 20.03.2017Жанр: Драма, Исторический, Русский сериалruuapt HD 1 ????????????: ???? ???????????????? ????????????: Mata Hari??? ? ????????????: ???? ???????????????? ????????????: Mata Hari
18.08.2018
Скачать видео «Stand up Алексей Щербаков Лучшее» бесплатно и без регистрации или смотреть это видео онлайн. Оставляйте свои комментарии и
18.08.2018
51 722 100 KinoGo.by 1 2 3 4 5 722 На дворе конец десятого столетия - это время, когда викингам
18.08.2018
Этот новый исторический фильм рассказывает о жизни троих братьев, которые являются князьями. В те в Фильм Викинг (2016) вы можете
17.08.2018
СМОТРЕТЬ ОНЛАЙН Название: Буду верной женой Страна: Россия Жанр: мелодрама Качество: WEBRip Ориг Александр Пашков (15 ноября 1979) - актер. Читайте
17.08.2018
О кино: Жанр: история, драма Год: s Викинг фильм (2016) смотреть онлайн бесплатно в хорошем качестве, Викинг фильм (2016) смотреть
13.08.2018
51 716 100 KinoGo.by 1 2 3 4 5 716 LordFilm.tv » Фильмы » Викинг (2016) На дворе конец десятого
11.08.2018
Год выпуска: 2013 Страна: Россия Жанр: тв-шоу Продолжительность: 8 серий Пере& ? ??????: ????? ????? ?? ???????? - ?????? ?? ?? ??????! ?? ??? ??????? - ????????? ???? ? "??????? ??????"! ????????? "???? ?????????" ??????& MediaInfo
выбрать фон